برای استفاده از تمامی امکانات انجمن و مشاهده ی آنها بایستی ابتدا ثبت نام کنید
مطلبي که مشاهده مي کنيد
در سطل زباله ي انجمن مي باشد
نمایش نتایج: از شماره 1 تا 5 از مجموع 5
  1. #1
    گروه برنامه نویسی چیا
    تاریخ عضویت
    Dec 2011
    محل سکونت
    کرمانشاه
    ارسال ها
    1,217
    سپاس
    4,096
    از این کاربر 6,138 بار در 1,404 پست سپاس گزاری شده

    دانلود موزیک ویدیوهایی از Selena Gomez

    Selena Gomez And The Scene-Love You Like A Love Song


    Format: Matroska
    Bitrate:2044 Kbps
    Playtime : : 3 min 33s
    Video: 704×432 (WxH) - AR: 16:9 - FPS: 25.000
    Audio: MP3 @ (Variable) - 2 channels - 44.1 KHz
    Size : :52 MB
    :fsc:

    کد:
    http://www.filesonic.com/file/4188599704//Selena_Gomez_And_The_Scene-Love_You_Like_A_Love_Song-CONVERT-x264-2011-FRAY.rar
    :fs:

    کد:
    http://www.fileserve.com/file/6UwUtzH/Selena_Gomez__The_Scene__Hit_The_Lights_1920x1080p_HD.rar
    گروه برنامه نویسی چیا

    مجری طراحی، راه اندازی و پشتیبانی انواع وبسایت شخصی، تجاری و فروشگاهی

    https://www.chiaa.ir

  2. کاربر زیر از Reza-G بخاطرِ این مطلب مفید سپاس گزاری کرده است :


  3. #2
    گروه برنامه نویسی چیا
    تاریخ عضویت
    Dec 2011
    محل سکونت
    کرمانشاه
    ارسال ها
    1,217
    سپاس
    4,096
    از این کاربر 6,138 بار در 1,404 پست سپاس گزاری شده
    Selena Gomez & The Scene- Hit The Lights


    Size: 114678557 bytes (109.37 MiB), duration: 00:03:23, avg.bitrate: 4519 kb/s
    Audio: aac, 44100 Hz, stereo
    Video: h264, yuv420p, 1920x1080, 23.98 fps(r)
    :fsc:

    کد:
    http://www.filesonic.com/file/4169691265/Selena_Gomez__The_Scene__Hit_The_Lights_1920x1080p_HD.rar
    :fs:

    کد:
    http://www.fileserve.com/file/6UwUtzH/Selena_Gomez__The_Scene__Hit_The_Lights_1920x1080p_HD.rar
    گروه برنامه نویسی چیا

    مجری طراحی، راه اندازی و پشتیبانی انواع وبسایت شخصی، تجاری و فروشگاهی

    https://www.chiaa.ir

  4. کاربر زیر از Reza-G بخاطرِ این مطلب مفید سپاس گزاری کرده است :


  5. #3
    گروه برنامه نویسی چیا
    تاریخ عضویت
    Dec 2011
    محل سکونت
    کرمانشاه
    ارسال ها
    1,217
    سپاس
    4,096
    از این کاربر 6,138 بار در 1,404 پست سپاس گزاری شده
    SELENA GOMEZ ft.THE SCENE MegaMix

    Format: MPEG4 Visual
    Width/Height: 1280x720
    Aspect ratio: 16/9
    Framerate: 24,000 Fps
    Bits/(Pixel*Frame): 0,272
    Stream size: 272 MiB(97%)
    AUDIO: AAC 165Kbps 2Ch 48,0KHz
    PLAYTIME: 6min.19sec

    ScreenShot



    :fsc:

    کد:
    http://www.filesonic.com/file/4160714945/Selena_Gomez_ft.The_Scene_Megamix_2011.rar
    گروه برنامه نویسی چیا

    مجری طراحی، راه اندازی و پشتیبانی انواع وبسایت شخصی، تجاری و فروشگاهی

    https://www.chiaa.ir

  6. کاربر زیر از Reza-G بخاطرِ این مطلب مفید سپاس گزاری کرده است :


  7. #4
    گروه برنامه نویسی چیا
    تاریخ عضویت
    Dec 2011
    محل سکونت
    کرمانشاه
    ارسال ها
    1,217
    سپاس
    4,096
    از این کاربر 6,138 بار در 1,404 پست سپاس گزاری شده
    Selena Gomez - Round & Round

    Format: Matroska
    1080p
    Stream size: 87 MiB
    کد:
    http://filepost.com/files/ca2183m3/Selena_Gomez_&_The_Scene_-_Round_&_Round_[1080p_86MB_MKV_Without_Logo].mkv/
    گروه برنامه نویسی چیا

    مجری طراحی، راه اندازی و پشتیبانی انواع وبسایت شخصی، تجاری و فروشگاهی

    https://www.chiaa.ir

  8. کاربر زیر از Reza-G بخاطرِ این مطلب مفید سپاس گزاری کرده است :


  9. #5
    گروه برنامه نویسی چیا
    تاریخ عضویت
    Dec 2011
    محل سکونت
    کرمانشاه
    ارسال ها
    1,217
    سپاس
    4,096
    از این کاربر 6,138 بار در 1,404 پست سپاس گزاری شده
    Selena Gomez & The Scene - Who Says


    Format: Mpeg4
    1080p
    Stream size: 67 MiB
    کد:
    http://filepost.com/files/383972m1/Selena_Gomez_&_The_Scene_-_Who_Says_[1080p_67MB_MP4_Without_Logo].mp4/
    گروه برنامه نویسی چیا

    مجری طراحی، راه اندازی و پشتیبانی انواع وبسایت شخصی، تجاری و فروشگاهی

    https://www.chiaa.ir

  10. کاربر زیر از Reza-G بخاطرِ این مطلب مفید سپاس گزاری کرده است :


 

 

برچسب برای این موضوع

مجوز های ارسال و ویرایش

  • شما نمی توانید موضوع جدید ارسال کنید
  • شما نمی توانید به پست ها پاسخ دهید
  • شما نمی توانید فایل پیوست ضمیمه کنید
  • شما نمی توانید پست های خود را ویرایش کنید
  •  
  • قدرت گرفته از سیستم vBulletin نسخه ی 4.2.3
  • قالب اختصاصی انجمن TvWorld نسخه ی 1.0
  • طراحی و اجرای قالب : نوژن
  • تمام حقوق مطالب و محتوا برای تی وی وُرلد محفوظ می باشد
Powered by vBulletin® Version 4.2.1
Copyright ©2000 - 2009, Jelsoft Enterprises Ltd.